#TITLE:Ninja;
#SUBTITLE:Initiate;
#ARTIST:Jay Chou;
#TITLETRANSLIT:;
#SUBTITLETRANSLIT:;
#ARTISTTRANSLIT:;
#CREDIT:;
#BANNER:ninja-bn.jpg;
#BACKGROUND:;
#LYRICSPATH:;
#CDTITLE:cdtitle.png;
#MUSIC:Ninja.mp3;
#OFFSET:-0.040;
#SAMPLESTART:100.000;
#SAMPLELENGTH:12.000;
#SELECTABLE:YES;
#DISPLAYBPM:106.000;
#BPMS:0.000=106.000,48.000=212.000,48.667=53.000,49.000=106.000,56.000=212.000,56.667=53.000,57.000=106.000,63.000=53.000,63.333=212.000,64.000=106.000,67.500=53.000,67.667=212.000,68.000=106.000,71.500=53.000,71.667=212.000,72.000=106.000,76.000=212.000,76.667=53.000,77.000=212.000,77.500=53.000,77.750=212.000,78.250=53.000,78.500=106.000,176.000=212.000,176.667=53.000,177.000=106.000,184.000=212.000,184.667=53.000,185.000=106.000,195.500=53.000,195.667=212.000,196.000=106.000,199.500=53.000,199.667=212.000,200.000=106.000,204.000=53.000,204.333=212.000,205.000=53.000,205.250=212.000,205.750=53.000,206.000=212.000,206.500=106.000,257.500=212.000,258.167=53.000,258.500=106.000,261.500=212.000,262.167=53.000,262.500=106.000,265.500=212.000,266.167=53.000,266.500=106.000;
#STOPS:;
#BGCHANGES:0.000=ninja.avi=1.000=0=0=1,
99999=-nosongbg-=1.000=0=0=0 // don't automatically add -songbackground-
;
// cache tags:
#FIRSTBEAT:0.000;
#LASTBEAT:275.250;
#SONGFILENAME:Songs/Initiate/ninja/Ninja.sm;
#HASMUSIC:1;
#HASBANNER:1;
#MUSICLENGTH:158.048;
// end cache tags

//---------------dance-single - ----------------
#NOTES:
     dance-single:
     :
     Hard:
     9:
     1.000,1.000,1.000,1.000,0.471,653.000,357.000,210.000,0.000,118.000:
1001
0100
1001
0110
1001
1001
0001
1000
,
0110
0101
0001
0101
0100
1000
0100
0001
,
0110
0110
0110
0010
1010
1000
0100
0001
,
1100
1100
1100
1000
1100
0001
0110
1100
,
0101
1000
0101
0010
0101
1000
0101
1000
0101
1000
0101
0100
1010
0100
1000
1000
,
0110
0010
1001
0100
1001
0100
1001
0010
1001
0100
1001
0100
1001
0010
0101
0000
,
1010
0100
1010
0001
1010
0100
1010
0100
1010
0001
1010
0001
1010
0000
1000
0000
,
1010
0000
1100
0010
0110
0000
1001
0010
1001
0000
1010
0100
1001
0000
0210
0000
,
2310
0000
0020
0030
3211
0000
0010
0001
1300
0010
0102
1000
0123
0001
2130
0010
,
3201
0000
0002
0003
2311
0010
0100
0010
3102
0010
0100
0000
0123
1000
0100
0000
,
1130
0000
0000
0000
2002
0000
3003
0000
0120
0000
0000
0000
0100
0000
0000
0000
2031
0000
0100
0000
0010
0000
0001
0000
3201
0000
1000
0000
0321
0000
1000
0200
,
1332
1000
0010
0100
1013
0010
0100
1000
0010
0100
1000
0100
1010
0000
0001
0000
,
1000
0000
2100
3200
0321
0130
2001
3120
,
0231
0000
0300
0000
2001
0000
3000
0000
0021
2030
3200
2300
3201
0300
0100
0000
,
1000
0000
0000
0000
2100
0000
3200
0001
2300
0000
0010
0000
3102
0000
0213
0000
,
2301
3000
0210
0300
1020
0130
2020
3030
,
0101
0010
0101
1010
0101
0110
1010
0002
,
1103
0000
1000
0010
0101
0000
1010
0000
0011
0000
0110
0000
1001
0000
0200
0000
,
1301
0000
0010
0001
1100
0000
0101
0000
0011
1000
0101
0010
1001
0000
0100
0000
,
0001
0000
0000
0000
1000
0000
0000
0100
0000
0000
1001
0000
0110
0000
0110
0000
,
2101
0000
0101
0000
3211
0000
1001
0000
0312
0000
1100
0010
1103
0010
1001
0000
,
1102
0000
1100
0000
1123
0000
1100
0000
2031
0000
0101
0010
3101
0010
1100
0000
,
1020
0000
0101
0000
2031
0000
0101
0000
3020
0100
1001
0100
1031
0100
0011
0000
,
2100
3000
0012
0003
0100
0000
1001
0010
0201
0000
0001
0300
2002
0000
3003
0000
,
0012
0000
1100
0000
0203
0000
0011
0300
0010
0000
1201
0010
2301
0010
3102
0000
,
2013
0000
0110
3000
0110
0000
1001
0000
1000
0010
0101
0010
1100
0001
0110
0000
,
0201
0000
0011
0300
0110
0000
1100
0000
0001
0000
2001
3010
0102
1003
0200
0300
,
2001
3000
0201
0300
0001
0000
0001
0010
1200
0000
0000
0300
1020
0000
0000
0030
,
1000
0000
0200
0320
0100
0000
0000
0000
0001
0000
1000
0000
0100
0000
2031
0000
,
3210
0000
0301
2000
3002
0100
2013
0100
,
3010
0000
0200
0320
0001
0000
0000
0100
0000
0000
0100
0030
0010
0000
1200
0000
,
0321
0000
0000
0000
0100
0000
0230
1000
0320
0000
1000
0000
0231
0000
0010
0300
,
1020
0030
0002
0003
0201
0300
2000
3000
0120
0000
0100
0030
0012
0003
0120
0030
,
1200
0000
0000
0000
1302
0000
0023
0000
1032
0000
0010
0000
0100
0000
0010
0003
,
0012
0003
0020
0030
1200
0300
2000
3010
0200
0000
0001
0300
2001
3000
0120
0030
,
1200
0000
0000
0000
0000
0300
2000
0000
3021
0000
0031
0000
0101
0000
0010
0000
,
0101
1000
0101
0010
0101
1000
0101
1000
0101
1000
0101
0100
1010
0100
1000
0001
,
1100
0010
1001
0100
1001
0100
1001
0010
1001
0100
1001
0100
1001
0010
0101
0000
,
1010
0100
1010
0001
1010
0100
1010
0100
1010
0001
1010
0001
1010
0000
1000
0000
,
1010
0000
1100
0010
0110
0000
1001
0010
1001
0000
1010
0100
1001
0000
0210
0000
,
2310
0000
0020
0030
3211
0000
0010
0001
1300
0010
0102
1000
0123
0001
2130
0010
,
3201
0000
0002
0003
2311
0010
0100
0010
3102
0010
0100
0000
0123
1000
0100
0000
,
1130
0000
0000
0000
2002
0000
3003
0000
0120
0000
0000
0000
0100
0000
0000
0000
2031
0000
0100
0000
0010
0000
0001
0000
3210
0000
1000
0000
0321
0000
1000
0200
,
1332
1000
0010
0100
1013
0100
1000
0100
0010
0001
0010
0100
1001
0000
0010
0000
,
0010
0000
1020
2030
3102
1003
0120
1032
,
2103
0000
3000
0000
0120
0000
0030
0000
0102
0023
2030
3020
2130
3000
1000
0000
,
0010
0000
0000
0000
1020
0000
2030
0100
3020
0000
0001
0000
1230
0000
2301
0000
,
3120
0030
2000
3100
0002
1003
0022
0033
,
1100
0001
1100
0011
1100
1001
0011
0200
,
1310
0000
0001
0010
1100
0000
0011
0000
0101
0000
1001
0000
0110
0000
2000
0000
,
3110
0000
0001
0100
1010
0000
1100
0000
0101
0010
1100
0001
0110
0000
1000
0000
,
0100
0000
0000
0000
0100
0000
0000
1000
0000
0000
0110
0000
1001
0000
1001
0000
,
1120
0000
1100
0030
2101
0000
0110
3000
0201
0000
1010
0301
1010
0001
0110
0001
,
1210
0000
1010
0300
1012
0000
1010
0003
0120
0000
1100
0031
1100
0001
1010
0100
,
0012
0000
1100
0003
0120
0000
1100
0030
0002
1000
0110
1003
0110
1000
0101
0000
,
1020
0030
0201
0300
1000
0000
0110
0001
2100
0000
0100
3000
0220
0000
0330
0000
,
0201
0000
1010
0300
2000
0000
0101
3000
0001
0000
2110
3001
0120
0031
1200
0300
,
1020
0000
1001
0030
1001
0000
0110
0000
0001
0000
1100
0001
1010
0100
1001
0000
,
2100
0000
0101
3000
1001
0000
1010
0000
0100
0000
0120
0031
2100
3010
0200
0300
,
0021
0030
2100
3000
0100
0000
0100
0001
2010
0000
0000
3000
0012
0000
0000
0003
,
0201
0000
1010
0300
2000
0000
0101
3000
0001
0000
2110
3001
0120
0031
1200
0300
,
1020
0000
1001
0030
2001
0000
0110
3000
0002
0000
1100
0013
1001
0100
1001
0000
,
2100
0000
0101
3000
1002
0000
1010
0003
0200
0000
1010
0301
1100
0010
1000
0000
,
0120
0030
2100
3000
0100
0000
0100
0001
2010
0000
0000
3000
0012
0000
0000
0003
,
0110
0011
0110
1001
0000
0220
2332
0110
,
3113
1001
0110
1001
0000
2002
3223
1001
,
1331
0110
1001
0110
0000
0220
2332
0110
,
3113
1001
0110
1001
0000
2002
3223
0000
,
0000
0000
0000
0000
0000
0000
0000
0000
0000
0000
0000
0000
0000
0330
0000
0000
;
